#TITLE:The 1st Day;
#SUBTITLE:;
#ARTIST:Stefani Sun;
#TITLETRANSLIT:The 1st Day;
#SUBTITLETRANSLIT:;
#ARTISTTRANSLIT:Ton Yen Tu;
#CREDIT:;
#BANNER:The 1st Day-bn.png;
#BACKGROUND:The 1st Day-bg.png;
#LYRICSPATH:;
#CDTITLE:pm4cd.png;
#MUSIC:The 1st Day.mp3;
#OFFSET:0.040;
#SAMPLESTART:58.903;
#SAMPLELENGTH:20.000;
#SELECTABLE:YES;
#BPMS:0.000=176.040;
#STOPS:;
#BGCHANGES:;
// cache tags:
#FIRSTBEAT:42.250;
#LASTBEAT:725.000;
#SONGFILENAME:Songs/Music V.I.P ^_^/The 1st Day/The 1st Day.sm;
#HASMUSIC:1;
#HASBANNER:1;
#MUSICLENGTH:253.884;
// end cache tags

//---------------dance-single - ----------------
#NOTES:
     dance-single:
     :
     Hard:
     11:
     0.808,1.000,1.000,0.110,0.102,1052.000,346.000,28.000,0.000,53.000:
0000
0000
0000
0000
,
0000
0000
0000
0000
,
0000
0000
0000
0000
,
0000
0000
0000
0000
,
0000
0000
0000
0000
,
0000
0000
0000
0000
,
0000
0000
0000
0000
,
0000
0000
0000
0000
,
0000
0000
0000
0000
,
0000
0000
0000
0000
,
0000
0000
0000
0000
0000
0000
0000
0000
0000
0001
0010
0000
0001
0000
0000
0000
,
0100
0000
0010
0000
0010
0000
0010
0000
0000
0001
0010
0000
0001
0000
0000
0000
,
1000
0000
0100
0000
0100
0000
0000
0000
0000
0100
0010
0000
0010
0000
0000
0000
,
0010
0000
0001
0000
0001
0000
0000
0000
0000
1000
0100
0000
0100
0000
0000
0000
,
0100
0000
0010
0000
0010
0000
0010
0000
0010
0001
0010
0000
0001
0000
0000
0000
,
1000
0000
0100
0000
0100
0000
0100
0000
0000
0001
0010
0000
0001
0000
0000
0000
,
0100
0000
0010
0000
0010
0000
0000
0000
0000
0100
1000
0000
0100
0000
0000
0000
,
0010
0000
0001
0000
0001
0000
0000
0000
0000
0100
1000
0000
0011
0000
0001
0000
,
0011
0001
0011
0001
0011
0001
1011
0000
,
0100
0000
0100
0010
0100
0000
1000
0000
,
1000
0000
1000
0100
1000
0000
0010
0000
,
0010
0000
0001
0010
0001
0000
0001
0000
,
0001
0000
0001
0010
0001
0000
1010
0000
,
0100
0000
1010
0001
0100
0000
0101
0000
,
0010
0000
0101
1000
0010
0000
0110
0000
,
0010
0000
0110
0001
0100
0000
0100
0000
,
0110
0100
1000
0100
0111
0000
1100
0000
,
0110
0011
1100
0000
0011
0000
1010
0000
,
0101
1010
0101
0000
1100
0000
0110
0000
,
0101
1100
0101
0000
1100
0000
0110
0000
,
0011
1100
0011
0000
0011
0000
0110
0000
,
1100
0011
1100
0000
0110
0000
0011
0000
,
1100
0011
0110
0000
0110
0000
1100
0000
,
0011
1100
0011
0000
0101
0000
1010
0000
,
0101
1010
0101
0000
0100
0000
1000
0000
,
0100
1000
0100
0100
,
0010
0000
0100
0000
0010
0000
1000
0100
,
0010
0001
0010
0100
1000
0100
0020
0000
,
0000
0000
0000
0000
0100
1030
0110
0000
,
1100
0101
0110
1100
,
0110
1001
1010
0101
,
0011
1100
1010
0101
,
1100
0000
0010
0010
0010
0020
0000
0000
,
0000
0000
0000
0130
0100
0000
0011
0100
,
0010
1000
0001
0100
1000
0100
0001
0100
,
0001
1000
0100
0010
0001
0100
0001
0010
,
1000
0100
0010
0100
0001
0100
1000
0010
,
0001
0100
0010
0100
1000
0100
0001
0100
,
1000
0010
1000
0010
0001
0100
0001
1000
,
0010
0100
0010
1000
0001
0100
0010
0100
,
1000
0100
0001
0010
0001
1000
0100
0001
,
0100
1000
0011
0100
0110
0100
1010
0001
,
0110
0001
1100
0010
1010
0100
0101
0010
,
0110
0100
1100
0010
0011
0100
1010
0100
,
0011
0100
1100
0001
0110
0001
0110
0010
,
0101
1000
0110
0001
0110
1000
0011
0100
,
0110
1000
1100
0100
0110
0010
0011
0001
,
1010
0100
0101
0010
1100
0010
0011
0100
,
1100
0010
0011
0100
1100
0010
0011
0100
,
1010
0010
0101
0100
1100
0001
0101
0101
,
0000
1010
1010
0000
0101
0202
1000
0010
,
1000
0000
0010
0000
1000
0000
0010
0000
1000
0000
0010
0000
1000
0000
0010
0303
,
0000
1000
0100
0000
1000
0000
0000
0000
0100
0000
0010
0000
0010
0000
0010
0000
,
0000
0001
0010
0000
0001
0000
0000
0000
1000
0000
0100
0000
0100
0000
0100
0000
,
1000
0100
0010
0001
0010
0100
1000
0100
0010
0001
0010
0100
1000
0000
0000
0000
,
0001
0000
0010
0000
0010
0000
0010
0000
0000
0100
0001
0000
0100
0000
0000
0000
,
0010
0000
1000
0000
1000
0000
1000
0000
0000
0010
1000
0000
0010
0000
0000
0000
,
1000
0000
0001
0000
0001
0000
0001
0000
0000
1000
0001
0000
1100
0000
0100
0000
,
1100
0100
1100
0100
1100
0100
1101
0000
,
1000
0000
1100
0010
1100
0000
0001
0000
,
0001
0000
0110
0001
0110
0000
0010
0000
,
0010
0000
0101
0010
0101
0000
0100
0000
,
0100
0000
0011
0100
0011
0000
2001
0000
,
0101
0000
0011
0100
0011
0000
3201
0000
,
1010
0000
1001
0010
1001
0000
0311
0000
,
1000
0000
0101
0100
0101
0000
0010
0000
,
0101
0001
0010
1101
1101
1101
1111
0000
,
1010
0110
0101
0000
0110
0000
1001
0000
,
0011
1001
1100
0000
1010
0000
0101
0000
,
1001
1100
1001
0000
0011
0000
1010
0000
,
1100
0110
0101
0000
0011
0000
0110
0000
,
1010
0101
1010
0000
1100
0000
0011
0000
,
0110
1001
1010
0000
0011
0000
1010
0000
,
0101
1001
1010
0000
1001
0000
1100
0000
,
1001
1010
0110
0000
0100
0010
0001
0000
,
0010
1000
0001
0001
,
1000
0000
0100
0000
0010
0000
1000
0100
,
0010
0001
0010
0100
0010
0001
0020
0000
,
0000
0000
0000
0000
0100
0130
1101
0000
,
1001
0101
0011
1010
,
0101
0110
1100
0101
,
0011
0110
1100
0101
,
1001
0000
1100
1100
1100
0200
0000
0000
,
0000
0000
0000
1300
1000
0000
1100
0010
,
0100
0001
1000
0010
0001
0010
1000
0010
,
1000
0001
0010
0100
1000
0010
1000
0100
,
0001
0010
0100
1000
0010
1000
0001
0010
,
0001
1000
0001
0100
0010
0100
0001
0100
,
1000
0100
0001
0010
0001
0100
0010
1000
,
0001
0010
1000
0010
0001
1000
0010
0001
,
1000
0100
0001
0010
1000
0010
1000
0001
,
0100
0010
1001
0100
0101
0100
1100
1000
,
0101
0010
1100
0010
1001
0100
0101
0001
,
1100
1000
0110
0001
0011
0100
1100
0100
,
0011
0001
1010
1000
0110
0001
0101
0010
,
0110
1000
1100
0010
0011
0010
1010
0100
,
1001
0010
1100
1000
0101
0010
0101
0010
,
1010
0001
0101
1000
0011
0100
1010
0100
,
0110
0010
0011
0100
0101
0010
1010
0100
,
0110
0001
1100
0010
0101
1000
1100
1100
,
0000
0110
0110
0000
0011
0022
0000
0000
,
1000
1000
1000
2033
,
0100
0100
0100
3000
,
0201
0000
0001
0000
0002
0300
1023
0000
,
1000
2000
0030
0000
,
3201
0001
0001
0302
,
0100
0100
0100
0203
,
0010
0010
0020
0300
,
0001
0001
0002
0030
,
1000
1000
2003
0000
,
0110
0110
0220
3000
,
0000
0000
0000
0000
0000
0000
1000
0001
,
1000
0001
1000
0001
1000
0001
1000
0001
,
1001
0000
1001
0000
1001
0000
1001
0000
1001
0000
1001
0000
1331
0100
0010
0001
,
0010
0100
1000
0100
0010
0001
0010
0100
1000
0100
0010
0001
0010
0100
1000
0100
,
0010
0001
0010
0100
1000
0100
0010
0001
0010
0100
1000
0100
0010
0001
0001
0010
,
0100
1000
1000
0100
0010
0001
0001
0010
0100
1000
1000
0100
0010
0001
0001
0010
,
0100
1000
1000
0100
0010
0001
0001
0010
0100
1000
0100
0000
1000
0000
0001
0000
,
1000
0001
1000
0001
1000
0001
0100
0010
,
0100
0010
0100
0010
0100
0010
1000
0010
,
1000
0010
1000
0010
1000
0010
2000
0000
,
0000
0000
0000
0000
3010
0100
0010
0000
,
0100
1000
0100
0010
,
0001
0000
0100
0000
0010
0000
1000
0100
,
0010
0001
0010
0001
0010
0100
2000
0000
,
0000
0000
0000
0000
0010
3001
0110
0000
,
0101
1100
0110
1100
,
0110
0011
0110
0110
,
0101
1010
0101
1010
,
0110
0000
0000
0000
0011
0000
1000
0100
1000
0100
1000
0000
0000
0000
0000
0000
,
0000
0000
1000
0100
0000
0000
1100
0010
,
0100
0010
0101
0010
0001
1000
0110
0001
,
0010
0100
1001
0010
0001
0100
0011
1000
,
0100
0010
1001
0100
0010
0001
1010
0100
,
1000
0001
0110
0001
1100
1100
1100
0010
,
0001
0100
1010
0001
1000
0010
0101
0010
,
1000
0100
1001
0010
0001
0100
0011
0100
,
1000
0010
1001
0100
0010
1000
0011
0100
,
1000
0001
0110
1000
1001
0010
1010
0100
,
0011
1000
0101
0010
1100
0001
1001
0100
,
0101
0010
1010
0100
1100
0010
0011
0001
,
0110
1000
1100
0001
0011
0010
1010
0100
,
0101
0010
0110
0100
1100
0001
1010
0100
,
0011
0100
1001
1000
1100
0001
0011
0100
,
0110
1000
1010
0010
0101
0001
1010
0010
,
0011
1000
1100
0010
0110
0100
1010
0100
,
0101
0001
1001
0010
0110
0100
1100
1100
,
0000
0110
0110
0000
0011
0011
0000
0000
,
0000
0000
0000
0000
0000
0000
0011
0011
,
0000
0110
0110
0000
1100
1100
0000
0000
,
0000
0000
0000
0000
0000
0000
1010
1010
,
0000
0101
0101
0000
0110
0110
0000
0000
,
0000
0000
0000
0000
,
0010
0010
0010
0010
0010
0010
0100
1000
,
0100
0001
0010
0100
0001
1000
0100
0010
,
1000
0001
0100
0010
1000
0100
0010
1000
,
0100
0001
0010
0001
0100
0010
0001
1000
,
0100
0010
0001
0100
0001
0010
0100
1000
,
0001
0010
0100
0001
1000
0100
0001
0100
,
0010
1000
0100
0001
1000
0010
0100
1000
,
0001
0010
0100
1000
0100
0010
0100
0000
,
0100
0100
0100
0001
,
0001
0001
0001
1000
,
1000
1000
1000
0010
,
0010
0010
0010
1100
,
1100
1100
1100
0011
,
0011
0011
0011
0110
,
0110
0110
0110
1010
,
1010
1010
1010
0222
,
0000
0000
0000
0000
,
0000
0000
0000
0000
,
0000
0333
0000
0000
;

//---------------dance-single - ----------------
#NOTES:
     dance-single:
     :
     Medium:
     1:
     0.000,0.000,0.000,0.000,0.000,0.000,0.000,0.000,0.000,0.000:
0000
0000
0000
0000
;
